BestNewPosts.com

Download Torrents – Watch Football

The Diabetes Solution (2021) 720p Download



The Diabetes Solution (2021) 720p Download Full Movie Torrent

Movie: The Diabetes Solution

Language: English
Genres: Documentary ,
Release date: 2021

Summary:
The diabetes community has been filled with deception for the past 50 years. The typical guidelines for managing diabetes have ultimately caused suffering for millions of people with the disease. Follow a group of families and doctors as they present a solution to managing diabetes that could spare many patients from devastating complications in this seminal documentary about diabetes.

Files
The Diabetes Solution (2021) 720p GAIA x264
Poster.jpg (3.5 MB)
The Diabetes Solution (2021) 720p GAIA x264.mp4 (826.1 MB)
Subs
The Diabetes Solution (2021) 720p GAIA x264.ENG.srt (71.5 KB)

Description

A group of families and doctors reveal a corporate cover-up in exposing the truth about Diabetes management, in this seminal documentary about the disease.

https://www.imdb.com/title/tt13273264/

https://www.reddit.com/user/ConspiracyTorrents/posts/

Quote:
Video
ID : 1
Format : AVC
Format/Info : Advanced Video Codec
Format profile : [email protected]
Format settings : CABAC / 4 Ref Frames
Format settings, CABAC : Yes
Format settings, Reference frames : 4 frames
Codec ID : avc1
Codec ID/Info : Advanced Video Coding
Duration : 53 min 41 s
Bit rate : 1 954 kb/s
Width : 1 280 pixels
Height : 720 pixels
Display aspect ratio : 16:9
Frame rate mode : Variable
Frame rate : 23.976 (24000/1001) FPS
Minimum frame rate : 23.974 FPS
Maximum frame rate : 23.981 FPS
Color space : YUV
Chroma subsampling : 4:2:0
Bit depth : 8 bits
Scan type : Progressive
Bits/(Pixel*Frame) : 0.088
Stream size : 750 MiB (91%)
Color range : Limited
Color primaries : BT.709
Transfer characteristics : BT.709
Matrix coefficients : BT.709
Codec configuration box : avcC

Audio
ID : 2
Format : AAC LC
Format/Info : Advanced Audio Codec Low Complexity
Codec ID : mp4a-40-2
Duration : 53 min 41 s
Bit rate mode : Constant
Bit rate : 192 kb/s
Channel(s) : 2 channels
Channel layout : L R
Sampling rate : 48.0 kHz
Frame rate : 46.875 FPS (1024 SPF)
Compression mode : Lossy
Stream size : 73.5 MiB (9%)
Default : Yes
Alternate group : 1


✍️ Size: 829.6 MB


 145 total views,  1 views today


Leave a Reply

Your email address will not be published.