BestNewPosts.com

Download Torrents – Watch Football

X 2022 1080p Downlaod Full Movie Torrent



X 2022 1080p Downlaod Full Movie Torrent

Movie: X

Language: English
tag: MOVIE , RARBG ,
Genres: Horror , Mystery , Thriller ,
Release date: 2022

Summary:
In 1979, a group of young filmmakers set out to make an adult film in rural Texas, but when their reclusive, elderly hosts catch them in the act, the cast find themselves fighting for their lives.

Files
X.2022.1080p.WEBRip.DDP5.1.x264-NOGRP
RARBG.txt (0.0 KB)
X.2022.1080p.WEBRip.DDP5.1.x264-NOGRP.mkv (4.4 GB)

Description

Screens… (click to enlarge):

Infolink -> https://www.imdb.com/title/tt13560574/

Mediainfo

Quote:
Video
ID : 1
Format : AVC
Format/Info : Advanced Video Codec
Format profile : [email protected]
Format settings : CABAC / 2 Ref Frames
Format settings, CABAC : Yes
Format settings, Reference frames : 2 frames
Codec ID : V_MPEG4/ISO/AVC
Duration : 1 h 46 min
Bit rate : 5 490 kb/s
Width : 1 920 pixels
Height : 1 080 pixels
Display aspect ratio : 16:9
Frame rate mode : Constant
Frame rate : 23.976 (24000/1001) FPS
Color space : YUV
Chroma subsampling : 4:2:0
Bit depth : 8 bits
Scan type : Progressive
Bits/(Pixel*Frame) : 0.110
Stream size : 4.08 GiB (93%)
Writing library : x264 core 155 r2901 7d0ff22
Default : Yes
Forced : No
Color range : Limited
Color primaries : BT.709
Transfer characteristics : BT.709
Matrix coefficients : BT.709

Audio
ID : 2
Format : E-AC-3
Format/Info : Enhanced AC-3
Commercial name : Dolby Digital Plus
Codec ID : A_EAC3
Duration : 1 h 46 min
Bit rate mode : Constant
Bit rate : 384 kb/s
Channel(s) : 6 channels
Channel layout : L R C LFE Ls Rs
Sampling rate : 48.0 kHz
Frame rate : 31.250 FPS (1536 SPF)
Compression mode : Lossy
Stream size : 292 MiB (7%)
Language : English
Service kind : Complete Main
Default : Yes
Forced : No

Text #1
ID : 3
Format : UTF-8
Codec ID : S_TEXT/UTF8
Codec ID/Info : UTF-8 Plain Text
Duration : 1 h 38 min
Bit rate : 35 b/s
Count of elements : 935
Stream size : 25.9 KiB (0%)
Language : English
Default : Yes
Forced : No

Text #2
ID : 4
Format : UTF-8
Codec ID : S_TEXT/UTF8
Codec ID/Info : UTF-8 Plain Text
Duration : 1 h 40 min
Bit rate : 42 b/s
Count of elements : 1127
Stream size : 31.4 KiB (0%)
Title : SDH
Language : English
Default : No
Forced : No


✍️ Size: 4.4 GB


 435 total views,  1 views today


Leave a Reply

Your email address will not be published.